Edge of Sanity - Crimson II track titles of "When all is said" CD2 compilation…

RSS
Recomendar

Dez 11 2009, 0h22

Edge of Sanity - 2006 - When All Is Said
Edge of Sanity - 2003 - Crimson II

Here's a cusheet of the second CD from the "When All Is Said" Compilation Album. It includes "Crimson" and "Crimson II".

I've labeled the tracks of "Crimson II" my own. So in comparison to the 2003 "Crimson II" version you have the right titles of this remastered version now.


========= CUESHEET ===============================
REM GENRE Death Metal
REM DATE 2006
REM DISCID E912C263
PERFORMER "Edge Of Sanity"
TITLE "When All Is Said"
FILE "Edge Of Sanity - 2006 - When All Is Said CD2.wav" WAVE
TRACK 01 AUDIO
TITLE "Crimson"
INDEX 01 00:00:00
TRACK 02 AUDIO
TITLE "Crimson"
INDEX 01 00:38:16
TRACK 03 AUDIO
TITLE "Crimson"
INDEX 01 01:55:15
TRACK 04 AUDIO
TITLE "Crimson"
INDEX 01 02:42:11
TRACK 05 AUDIO
TITLE "Crimson"
INDEX 01 03:09:01
TRACK 06 AUDIO
TITLE "Crimson"
INDEX 01 04:02:15
TRACK 07 AUDIO
TITLE "Crimson"
INDEX 01 04:54:07
TRACK 08 AUDIO
TITLE "Crimson"
INDEX 01 05:13:71
TRACK 09 AUDIO
TITLE "Crimson"
INDEX 01 05:44:56
TRACK 10 AUDIO
TITLE "Crimson"
INDEX 01 06:08:50
TRACK 11 AUDIO
TITLE "Crimson"
INDEX 01 06:40:64
TRACK 12 AUDIO
TITLE "Crimson"
INDEX 01 07:46:36
TRACK 13 AUDIO
TITLE "Crimson"
INDEX 01 08:19:59
TRACK 14 AUDIO
TITLE "Crimson"
INDEX 01 09:17:06
TRACK 15 AUDIO
TITLE "Crimson"
INDEX 01 10:45:65
TRACK 16 AUDIO
TITLE "Crimson"
INDEX 01 11:06:35
TRACK 17 AUDIO
TITLE "Crimson"
INDEX 01 11:47:15
TRACK 18 AUDIO
TITLE "Crimson"
INDEX 01 12:11:52
TRACK 19 AUDIO
TITLE "Crimson"
INDEX 01 12:41:62
TRACK 20 AUDIO
TITLE "Crimson"
INDEX 01 12:59:27
TRACK 21 AUDIO
TITLE "Crimson"
INDEX 01 14:04:09
TRACK 22 AUDIO
TITLE "Crimson"
INDEX 01 14:44:25
TRACK 23 AUDIO
TITLE "Crimson"
INDEX 01 15:33:20
TRACK 24 AUDIO
TITLE "Crimson"
INDEX 01 16:31:58
TRACK 25 AUDIO
TITLE "Crimson"
INDEX 01 17:45:49
TRACK 26 AUDIO
TITLE "Crimson"
INDEX 01 18:16:61
TRACK 27 AUDIO
TITLE "Crimson"
INDEX 01 19:12:50
TRACK 28 AUDIO
TITLE "Crimson"
INDEX 01 19:59:58
TRACK 29 AUDIO
TITLE "Crimson"
INDEX 01 20:44:19
TRACK 30 AUDIO
TITLE "Crimson"
INDEX 01 21:40:05
TRACK 31 AUDIO
TITLE "Crimson"
INDEX 01 22:52:63
TRACK 32 AUDIO
TITLE "Crimson"
INDEX 01 24:27:57
TRACK 33 AUDIO
TITLE "Crimson"
INDEX 01 25:43:28
TRACK 34 AUDIO
TITLE "Crimson"
INDEX 01 26:40:35
TRACK 35 AUDIO
TITLE "Crimson"
INDEX 01 27:51:54
TRACK 36 AUDIO
TITLE "Crimson"
INDEX 01 29:14:55
TRACK 37 AUDIO
TITLE "Crimson"
INDEX 01 30:05:16
TRACK 38 AUDIO
TITLE "Crimson"
INDEX 01 31:06:70
TRACK 39 AUDIO
TITLE "Crimson"
INDEX 01 31:39:38
TRACK 40 AUDIO
TITLE "Crimson"
INDEX 01 32:27:00
TRACK 41 AUDIO
TITLE "Crimson"
INDEX 01 33:20:11
TRACK 42 AUDIO
TITLE "Crimson"
INDEX 01 34:18:19
TRACK 43 AUDIO
TITLE "Crimson"
INDEX 01 35:54:45
TRACK 44 AUDIO
TITLE "Crimson"
INDEX 01 37:32:16
TRACK 45 AUDIO
TITLE "Crimson"
INDEX 01 37:52:12
TRACK 46 AUDIO
TITLE "Crimson"
INDEX 01 38:13:64
TRACK 47 AUDIO
TITLE "The Forbidden Words II"
INDEX 00 38:36:60
INDEX 01 38:38:29
TRACK 48 AUDIO
TITLE "Incantation I"
INDEX 01 39:56:22
TRACK 49 AUDIO
TITLE "Incantation II"
INDEX 01 41:00:31
TRACK 50 AUDIO
TITLE "Incantation III"
INDEX 01 41:43:16
TRACK 51 AUDIO
TITLE "Incantation IV"
INDEX 01 42:47:19
TRACK 52 AUDIO
TITLE "Incantation V"
INDEX 01 43:47:08
TRACK 53 AUDIO
TITLE "Incantation VI"
INDEX 01 44:34:55
TRACK 54 AUDIO
TITLE "Passage Of Time I"
INDEX 01 45:47:35
TRACK 55 AUDIO
TITLE "Passage Of Time II"
INDEX 01 46:52:41
TRACK 56 AUDIO
TITLE "Passage Of Time III"
INDEX 01 47:32:38
TRACK 57 AUDIO
TITLE "Passage Of Time IV"
INDEX 01 48:39:01
TRACK 58 AUDIO
TITLE "Passage Of Time IV"
INDEX 01 49:27:22
TRACK 59 AUDIO
TITLE "Passage Of Time V"
INDEX 01 50:11:11
TRACK 60 AUDIO
TITLE "Passage Of Time VI"
INDEX 01 51:23:51
TRACK 61 AUDIO
TITLE "Passage Of Time VII"
INDEX 01 51:59:19
TRACK 62 AUDIO
TITLE "Passage Of Time VIII"
INDEX 01 52:57:70
TRACK 63 AUDIO
TITLE "Passage Of Time IX"
INDEX 01 53:41:13
TRACK 64 AUDIO
TITLE "Passage Of Time X"
INDEX 01 54:35:73
TRACK 65 AUDIO
TITLE "The Silent Threat I"
INDEX 01 55:47:60
TRACK 66 AUDIO
TITLE "The Silent Threat II"
INDEX 01 56:52:64
TRACK 67 AUDIO
TITLE "The Silent Threat III"
INDEX 01 58:09:48
TRACK 68 AUDIO
TITLE "The Silent Threat IV"
INDEX 01 58:28:56
TRACK 69 AUDIO
TITLE "Achilles Heel I"
INDEX 01 59:05:32
TRACK 70 AUDIO
TITLE "Achilles Heel I"
INDEX 01 59:17:71
TRACK 71 AUDIO
TITLE "Achilles Heel II"
INDEX 01 59:58:08
TRACK 72 AUDIO
TITLE "Achilles Heel III"
INDEX 01 60:20:56
TRACK 73 AUDIO
TITLE "Achilles Heel III"
INDEX 01 61:13:25
TRACK 74 AUDIO
TITLE "Covenant Of Souls I"
INDEX 01 61:33:62
TRACK 75 AUDIO
TITLE "Covenant Of Souls I"
INDEX 01 62:22:38
TRACK 76 AUDIO
TITLE "Covenant Of Souls II"
INDEX 01 62:49:03
TRACK 77 AUDIO
TITLE "Covenant Of Souls II"
INDEX 01 63:35:61
TRACK 78 AUDIO
TITLE "Covenant Of Souls III"
INDEX 01 64:45:09
TRACK 79 AUDIO
TITLE "Covenant Of Souls III"
INDEX 01 65:02:34
TRACK 80 AUDIO
TITLE "Covenant Of Souls IV"
INDEX 01 65:18:29
TRACK 81 AUDIO
TITLE "Covenant Of Souls V"
INDEX 01 66:30:30
TRACK 82 AUDIO
TITLE "Covenant Of Souls V"
INDEX 01 67:14:40
TRACK 83 AUDIO
TITLE "Covenant Of Souls V-VI"
INDEX 01 68:00:63
TRACK 84 AUDIO
TITLE "Face To Face I"
INDEX 01 69:05:33
TRACK 85 AUDIO
TITLE "Face To Face I"
INDEX 01 69:29:25
TRACK 86 AUDIO
TITLE "Face To Face II"
INDEX 01 69:53:35
TRACK 87 AUDIO
TITLE "Face To Face III"
INDEX 01 70:17:27
TRACK 88 AUDIO
TITLE "Face To Face IV"
INDEX 01 70:39:08
TRACK 89 AUDIO
TITLE "Face To Face V"
INDEX 01 71:11:12
TRACK 90 AUDIO
TITLE "Disintegration I"
INDEX 01 71:53:55
TRACK 91 AUDIO
TITLE "Disintegration II"
INDEX 01 72:36:17
TRACK 92 AUDIO
TITLE "Disintegration III"
INDEX 01 73:40:45
TRACK 93 AUDIO
TITLE "Disintegration III"
INDEX 01 74:10:05
TRACK 94 AUDIO
TITLE "Aftermath I"
INDEX 01 75:12:34
TRACK 95 AUDIO
TITLE "Aftermath II"
INDEX 01 75:53:31
TRACK 96 AUDIO
TITLE "Aftermath III"
INDEX 01 77:07:17
TRACK 97 AUDIO
TITLE "Aftermath IV"
INDEX 01 77:40:33
TRACK 98 AUDIO
TITLE "Aftermath IV - V"
INDEX 01 78:58:27
TRACK 99 AUDIO
TITLE "Aftermath V"
INDEX 01 79:27:13

Comentários

Deixe um comentário. Faça login na Last.fm ou cadastre-se agora (é gratuito).